Dreamcast Redump Set

This is for Ike. (Total titles available: 34305) Want even more options ? Browse by genre, rating, and more with our advanced rom browser! To browse MAME ROMs, scroll up and choose a letter or select Browse by Genre. have only try with very common games like sega rally, panzer dragon 1+2, die hard arcade same with: NEC - PC Engine CD - TurboGrafx-CD Full Set (ReDump 20161106) and Sega Mega-CD and Sega-CD Reference Set (ReDump 20160827) 6 weeks after ending my Super Famicom fullset, i. 39) Console ROM Reference Sets: • (Redump validated) • (ROM Hunter v11 TorrentZipped) • (Redump validated) • (TOSEC validated) • (Redump validated) The cover image for this collection is based on an image by Sam. 11 - February 2001 (USA) (Track 1). This is a new misslist from scratch, work in progress by Landcross. Gaming accessories and cheat devices for Pokemon Go, Nintendo 3DS, Nintendo DS, PS4, PS3, PS2, GameCube, Wii and Wii U. Title=”Sony PlayStation – Asia – Non-Redump Set – Dizzy” This content is 1 year old. Download Dreamcast Torrent at TorrentFunk. JoJo no Kimyou na Bouken: Mirai e no Isan (Japan 990913, NO CD) #N#Tekken Tag Tournament (US, TEG3/VER. Jurys Inn Christchurch. 7z ESPN NBA 2Night (USA). J: Miss: NEC - PC Engine: 20151117: No-Intro: 419: 11/02/16: 0: NEC - PC Engine - Music: 1. 100% Fast Downloads!. ⬇ Drag and drop your images here to upload them. dat Customized DAT files, maintained by the libretro team. 6M: Jimmy White's 2 - Cueball (Europe) (En,Fr,De,Es,It). Guilty Gear has generally received praise from video game reviewers for its highly. What "No-Intro" does is fill some. 5" HDD with 512bytes sectors, I wanted one for my ps3 that had problems with 4k devices that started appear back then. HyperList + Redump for psx,dreamcast. 2 KB) 5: 1943: The Battle of Midway (US) 1943. great for preserving forged weapons and multiplying stat-ups. scripts Various scripts that are used to maintain the database files. A list of missing Sega Dreamcast Japanese games. For use with Fusion Emulating Sega CD/Mega CD, 32X, Mega CD-32X and Sega CD-32X games For use with Gens Emulating Sega CD/Mega CD and 32X games Contains the Recomended bios versions:- 32X_G_BIOS. Yamaha 24-bit Digital Signal Processor @ 22. TRS-80 Speech Module entirely discrete, no cpu, but 2 proms for phoneme parameters. YourBittorrent. Note: Some GD-Roms will NOT dump with this method, and require a TOSEC-style SD Card dump for the HD area which then has to be "fixed" to meet redump spec. Collection-GamesX2” This content is 3 years old. No-Intro sets. Check Wine's AppDB for compatibility. Scrambled state files are used when the binary is meant to be booted from a CD-ROM, i. 78) • • (Complete MAME 0. Recompressed nearly everything in 7z where possible. 022 "no MIL-CD" BIOS dumped [Leonard Oliveira] Katana Set5 Dev. The most common complete ROM sets you will encounter on the internet are known as "GoodSets". 4 (Japan) (Disc 2) (Tokyo Game Show '99 Autumn - Special Disk. That's 150 sectors(2 seconds) for audio track, 225 sectors(3 seconds) for the last split data track. I know not everyone has the patience to do it yourself but I've curated my own sets with proper names from all regions for the following systems, NES, SNES, Genesis, Master System, 32x, Game Gear, SG-1000, GB, GBC, GBA, Atari 2600, 5200, 7800, Wonderswan, Wonderswan Color, Turbo Grafx 16, PC Engine, Super Grafx, PS1, Dreamcast, Saturn, Sega CD, Nintendo DS, and some others. A holiday miracle! Re-added CD-i, PCECD, Dreamcast, 3DO, NGCD ISOs. Mical of New Technologies Group, that could be licensed by third parties. Includes manuals and magazines. 1 GB: 09/04/17: 0: 0. Though the dreamcast had a sudden and sad demise with Sega's exit from the console making scene, it was a console which saw some of the best games from that particular generation of video games. iso and therefore may not work with some emulators (bin/cue preferred). 37b5) • (Complete MAME 0. The current 'dump' of 5000026 (made by concatenating a trimmed dump) is probably correct but needs verification. Skip to content. F1 World Grand Prix for Dreamcast F1 ワールド グランプリ for Dreamcast: DC: 1. 150 Cpu : SH-4 Cpu Clock : 200 Mhz. parallel peripheral. House of the Dead 2 USA DC-KALISTO. in this conversation. 11 - February 2001 (USA) (Track 1). There are 620 games on this list, which includes titles exclusive to North America, exclusive to Europe, and exclusive to Japan. Welcome to replayers. BIN eu_mcd1_9210. So, TL;DR: On Dreamcast stick to GDIs, or CDIs for non-game / MIL-CD rips. Download Limit []. Hello RobLoach I would like to help create the playlist Sega CD, Saturn and Dreamcast. These were made for the Dreamcast SFL-2000P1 Control Unit, a set-top box with the innards of a Dreamcast, designed to run an interactive aquarium, for restaurants and hotel lobbies. There is also a folder containing a further 225 3D Boxes for games that are not in the ReDump Rom set. The reason the emulator was set the way is was is because that was 100% compatible even if it removed all analog functionality. Dreamcast emulation is in an interesting state of limbo. What makes playing GameCube isos on Wii even more pleasant is the fact that you can make MultiGame Discs of GC iso game for Wii. Browse ROMs / ISOs by download count and ratings. Thank you very much for putting these together! Though it's a shame to see the torrent isn't set up properly. The original discussion topic is at Romshepherd (category "tools") * Can unscrub ISOs scrubbed with many tools (wiiscrubber, wit, WiiBackUp Manager). Skip to content. This update includes 46 new video snaps bringing the set to 476 in total. Wii Ultimate Unscrubber The tool can unscrub a scrubbed Wii ISO to it's original state. They focus on accurately dumping and verifying the dumps to be 1:1 copies of the original. Sony PlayStation ROMs to play on your PS1 Console or any device with ePSXe emulator. Recompressed nearly everything in 7z where possible. 12 décembre 2018 2 février 2020 Redump. Redump PC-Engine CD/TurboGrafx CD set (2016-11-06) Redump NEC - PC Engine CD & TurboGrafx CD set. Filename naomigd. Sega Dreamcast - Homebrew - Demos - [CDI] (TOSEC-v2012-02-27) Sega Dreamcast - Homebrew - Demos - [CDI] Download 43 téléchargements. These BIOS’s can be used in any device, PC’s, phones, tablets, RP (Raspberry Pi), so look no further you have found the best BIOS … Continue reading "BIOS Files". Double Room Single Use - 25 OCT - €149 /NIGHT. 11 - February 2001 (USA) (Track 1). Mas calma, não se desesperem! Todo o conteúdo dele foi herdado por um novo site da mesma equipe do anterior. - AM_RANGE(0x1400000, 0x1ffffff) AM_ROM AM_REGION("dvi", 0x00000) // reads from here during boss battles when the videos should be displayed at the offsets where the DVI headers are // as a result it ends up writing what looks like pointers to the frame data in the ram area above. What "No-Intro" does is fill some. This helps you avoid downloading upwards of 400 gigabytes just to get only a fraction of the contents. 2019/04/07. Most TOSEC (CUE+ISO+MP3) isos are not compatible with beetle-saturn. The reverse engineered pbp format that we can use is a normal lossless zlib compression. Introduction. Here is How To Get Full Rom Sets / No Intro Roms for any console. Play and download ROMs on your computer, online within your browser, or on your mobile device. Capcom: Clash of Super Heroes (USA 980123) Cadillacs and Dinosaurs (World 930201). PlayStation Redump: USA (2015-05-24), Japan (2015-11-03), Europe (2015-11-03) TOSEC Dreamcast set TOSEC Sega CD and 32X set Format is. Double Room Single Use - 27 OCT - €149 /NIGHT. 5" HDD with 512bytes sectors, I wanted one for my ps3 that had problems with 4k devices that started appear back then. OK, I Understand. 134 Systems about 3,5tb use a custum psp set about 500 Games, custom Gamecube 207 Games, Full Psx NTSC set, Ps2 only 3 Games (Gran Turismo 3,4 & Prologe) Custom Wii set about 50 Games, NDS only the NTSC Games and all other 8-32bit System not worth talking about!. Feel free to trade with convoy/others to get stuff. J: Miss: NEC - PC Engine: 20151117: No-Intro: 419: 11/02/16: 0: NEC - PC Engine - Music: 1. Although the Dreamcast had a short lifespan and limited third-party support, reviewers have considered the console ahead of its time. for those having issues downloading, remove the "%20" at the end of the download URL after clicking "Download" Luan Conte Soares murgero92 • a year ago. Download section for PlayStation (PSX) ROMs / ISOs of Rom Hustler. Marvel Vs Capcom 2. For more details, check out the full "2020 FPGA Direct" linked above. org Sets - Internet Archive (2 days ago) The redump. I know not everyone has the patience to do it yourself but I've curated my own sets with proper names from all regions for the following systems, NES, SNES, Genesis, Master System, 32x, Game Gear, SG-1000, GB, GBC, GBA, Atari 2600, 5200, 7800, Wonderswan, Wonderswan Color, Turbo Grafx 16, PC Engine, Super Grafx, PS1, Dreamcast, Saturn, Sega CD, Nintendo DS, and some others. This post intends to explain some of the background around the work done these years by both groups and what has been acomplished. You are not authorised to read this forum. Browse: Top ROMs - By Letter - By Genre. great for preserving forged weapons and multiplying stat-ups. This helps you avoid downloading upwards of 400 gigabytes just to get only a fraction of the contents. 39) Console ROM Reference Sets: • (Redump validated) • (ROM Hunter v11 TorrentZipped) • (Redump validated) • (TOSEC validated) • (Redump validated) The cover image for this collection is based on an image by Sam. bin jp_mcd1. Downloads Links for PSX ISOs. Download Sega Dreamcast games, but first download an emulator to play Sega Dreamcast ROMS. Double Room Single Use - 27 OCT - €149 /NIGHT. This is Redump's preferred method. Scrambled state files are used when the binary is meant to be booted from a CD-ROM, i. bin" BINARY TRACK 01 MODE1/2352 INDEX 01 00:00:00 FILE "Official Sega Dreamcast Magazine Vol. beatmania THE FINAL (ver JA-A) Big Buck Hunter - Shooter's Challenge (v1. 11 - February 2001 (USA) (Track 2). Redump Saturn Complete set (2015-09-13). Bolded dates indicate the earliest release date (depends by showing on which region the earliest. Browse through the best collection of Nintendo 64 ROMs and be able to download and play them totally free of charge!. We have ROMs for many consoles such as GBA, SNES, SEGA, PSX, NINTENDO and more!. 4 Wheel Thunder (Europe) (En,Fr). 1 GB: 09/04/17: 0: 0. In the defense of TOSEC, there is a tool that can reliably convert between Redump and TOSEC dumps, so this means that neither method is significantly more accurate than the other. JoJo no Kimyou na Bouken: Mirai e no Isan (Japan 990913, NO CD) #N#Tekken Tag Tournament (US, TEG3/VER. Sega Genesis 32x Emulator for Windows - Works Great. And since the Dreamcast set has crc duplicates, it's useless if crc 'identification' happens first and is wrong, like in Zombie Revenge, and then this one doesn't happen. No preview available. zip (View Contents) 09-Feb-2017 16:24: 225. Set a Prefer Bonus - this is the percentage added to the match score for each found word of the preferred words list in the rom file name 6. NEC PC Engine CD-ROM2 System and TurboGrafx-CD 2016 Reference Set (Redump Validated ROMs) 3 years 116 GB 4 6 ReDump - Sega DreamCast 11 months 334 GB 1 8 SegaDreamcast-Redump. J: Miss: NEC - PC Engine: 20151117: No-Intro: 419: 11/02/16: 0: NEC - PC Engine - Music: 1. when the homebrew program is started from the bootstrap, often called IP. iso loader, which you can download from here (use the dev version)Rufus AppBackups of your games, in any of the following formats: CCD/IMG, CUE/ISO, CUE/BINFirst, you need to format your SD card to FAT32. Sega Genesis 32x Emulator for Windows - Works Great. Benesse - Pocket Challenge V2 (20200418-071309) Manquant : 1 Shinkenzemi Chuugaku Kouza - Koukou Juken EX (Goukaku Tokkou 700) (Japan). Dreamcast ISO Download Section. Each ROM that is scanned by the playlist generator is checked against a database of ROMs that are known to be good copies. We’re going to be testing this out on various other 32bit ARM devices as well and rolling it out there as well. 4 (Japan) (Disc 1) (Trial Disk). RetroArch incoporates a ROM scanning system to automatically produce playlists. 011: Original: T-3001M: F1 World Grand Prix II for Dreamcast F1 ワールド グランプリ II for Dreamcast: DC: 1. org to democratize data. 37b5) • (Complete MAME 0. Dreamcast console This is a list of all games for the Dreamcast video game console. 2080686 >>2080667 redump got blown out by the gdemu creator >In other news, my testers notified me of some recently done Dreamcast dumps that appear to be broken on GDEMU, so I investigated. C1) The King of Fighters 2002 Magic Plus II (bootleg) Marvel Vs. How To Install And Set Up Launchbox / BigBox And Gamecube Setup On PC Windows - Duration: 17:51. FAQ; News Forums; Information. The most common complete ROM sets you will encounter on the internet are known as "GoodSets". Sega Saturn Roms section. Beatmania III Append Core Remix. org Dreamcast set is currently supported by Reincast and Redream emulators. Previous - First. Now we include CloneCD/TruRip dumps, homebrew dumps and the like, these either aren't in an affected file format and/or the image(s) name(s) are simply "data. These were made for the Dreamcast SFL-2000P1 Control Unit, a set-top box with the innards of a Dreamcast, designed to run an interactive aquarium, for restaurants and hotel lobbies. If there is a download link on this page and you expect a torrent to be "well seeded" its VERY unlikely you will have much success - Our revenue funded Seedboxes usually only host for 90 days (more in some "collection" cases). Double Room Single Use - 27 OCT - €149 /NIGHT. org entries before purchase. Download Dreamcast Torrent at TorrentFunk. BIN 32X_M_BIOS. 7M: Jissen Pachi-Slot Hisshouhou! @VPACHI Kingdom (Japan). Like, Official Sega Dreamcast Magazine Vol. A holiday miracle! Re-added CD-i, PCECD, Dreamcast, 3DO, NGCD ISOs. This helps you avoid downloading upwards of 400 gigabytes just to get only a fraction of the contents. bin jp_mcd1. Null DC has sat dormant for over 5 years leaving. favorite favorite favorite favorite ( 13 reviews ) topics: redump, redump. gdi file (ex 187 bytes) What d. Feel free to trade with convoy/others to get stuff. Includes manuals. Play and download ROMs on your computer, online within your browser, or on your mobile device. CD-ROMs can have multiple tracks by design, and the standard says it can be any type, like audio, or data. 8GB, Wikipedia Sega System 18: Collection - 300MB , Wikipedia Sega Model 2: Collection 1 - 660MB , Collection 2 - 535MB , Collection 3 - 1. Please help us reach our goal as soon as possible. The first game was published in 1998, and spawned several sequels. These were made for the Dreamcast SFL-2000P1 Control Unit, a set-top box with the innards of a Dreamcast, designed to run an interactive aquarium, for restaurants and hotel lobbies. iso and therefore may not work with some emulators (bin/cue preferred) TOSEC 3DO set; TOSEC Philips CD-i set; TurboGrafx-CD set Tru-Rip + Maybe-Intro (v2014) TurboGrafx-CD set Tru-Rip + Maybe. Saturn was Sega's first next generation system that had a build in CD-Rom unit (Mega CD was just an addon for the Genesis). bin" BINARY TRACK 01 MODE1/2352 INDEX 01 00:00:00 FILE "Official Sega Dreamcast Magazine Vol. 12 décembre 2018 2 février 2020 Redump. Jurys Inn Christchurch. Converted nearly all CD sets to CHD format. Dreamcast Express Vol. I downloaded jet set radio ROMs from redump ROM set. favorite favorite favorite favorite ( 13 reviews ) Topics: redump, redump. For purchasing internationally see Regional Online Stores. There is also a folder containing a further 225 3D Boxes for games that are not in the ReDump Rom set. This grants 80 uses to the item, granted it has a numerical value attached to it, i. Redump Disc-based systems IRD Library PS3 Games Verifying Multi-Track Discs on Windows (PS1/Saturn/DC) Note: IsoBuster is only available for Windows and may not work on other platforms. - The IBM PC section now has over 18. cht Cheats to various games. Replaced many of the older ROM sets with No-Intro. This data wasn't designed to be used with the. org, No-Intro or TOSEC (Dreamcast specifically). Mame Set Version : 0. Index of rom packs Index of rom packs. Dreamcast Information. iso and therefore may not work with some emulators (bin/cue preferred) TOSEC 3DO set; TOSEC Philips CD-i set; TurboGrafx-CD set Tru-Rip + Maybe-Intro (v2014) TurboGrafx-CD set Tru-Rip + Maybe. While a good deal of the most popular games have transitioned over to newer consoles, there are still a surprising amount of quality titles […]. Known as the DirectXbox during development, it is notable for the specs having similarities to a PC, namely as a result of using familiar components around the x86 architecture. C1) The King of Fighters 2002 Magic Plus II (bootleg) Marvel Vs. You're signed out. org GDI represent GDI image set dumped and released by redump. From Redump Wiki. zip (View Contents) 09-Feb-2017 16:25: 44. VLC has dropped us a message asking to share his awesome Dreamcast Rom Set with everyone - this tidy little Romset (around 230gb ) will be sure to impress! USA EUR exclusives and some JAP exclusives and some Indies in there just for a touch of exotic! Showcasing VLCs Dreamcast ROM Pack (230gb) - grab from the site RIGHT NOW in Torrent. Replaced many of the older ROM sets with No-Intro. Alerta pra galere: The Iso Zone, o site de retro-pirataria mais melhor de bom do mundo, não oferece mais downloads. org, No-Intro or TOSEC (Dreamcast specifically). rumblef : bios. For use with Fusion Emulating Sega CD/Mega CD, 32X, Mega CD-32X and Sega CD-32X games For use with Gens Emulating Sega CD/Mega CD and 32X games Contains the Recomended bios versions:- 32X_G_BIOS. Many older USA dumps are currently being rechecked with modern tools to ensure that they are correct. A Database is attached. Download section for PlayStation (PSX) ROMs / ISOs of Rom Hustler. Microsoft Xbox Information. Requires login. Collection-GamesX2” This content is 3 years old. Browse ROMs / ISOs by download count and ratings. Since RetroArch is reported to contain redump romset metadata, it should be able to scan and add my dreamcast ROMs. gdi file (ex 187 bytes) What d. PSX Roms - Best way to organize games with multiple files and in your gamelist. You are correct about this method being more difficult. RetroArch is a frontend for emulators, game engines and media players. I changed the redump game, description and rom texts to use the hyperlist xml game text. En brevísimo resumen, estoy aquí para pediros vuestra ayuda y. Note: Many of these lists are very outdated. The Dreamcast console contained a modified 12x CD-ROM reader to read the format, which contained a high-density layer. Sega CD Emulator for Windows - Works Great. 7z ESPN NBA 2Night (USA). A collection of miss lists for redump. It currently runs on FreeBSD, GNU/Linux, Mac OS X, Windows, Dreamcast, and Wii. MAME Roms These are the 1016 ROMs that I have that work with MacMame! 1942 (set 1) 1942. Wii Ultimate Unscrubber The tool can unscrub a scrubbed Wii ISO to it's original state. cobhc2016 10 September 2019 09:50 #12 You mention trurip but this is in reference to redump. web; books; video; audio; software; images; Toggle navigation. 7z (View Contents) 30-May-2019 07:50: 895. Download Verified Popular Torrents Movies, TV Shows, Games, Music, Anime and Software, Bittorrent Downloading Absolutely for free at LimeTorrents. 9 Beiträge • Seite 1 von 1. In addition to this, you will soon be able to run original game discs (CDs) from RetroArch. Capcom: Clash of Super Heroes (USA 980123) Cadillacs and Dinosaurs (World 930201). Includes manuals. This page was last edited on 2 May 2020, at 03:33. At the time, all Dreamcast emulator users played games on their PCs with hacked MIL-CD versions of games. In fact if I had to pick a "preferred" format it would be CloneCD. Redump PS1 sets: USA, JAP, PAL TOSEC Dreamcast set; TOSEC SegaCD and 32X set Format is. Since RetroArch is reported to contain redump romset metadata, it should be able to scan and add my dreamcast ROMs. Browse ROMs / ISOs by download count and ratings. La razón por la que estoy aquí es para tratar de dar un carpetazo lo más efectivo posible al set de Dreamcast Europa de Redump. The most common complete ROM sets you will encounter on the internet are known as "GoodSets". Welcome to Vimm's Lair! This site is dedicated to nostalgia for many of the greatest game consoles ever made. Browse Categories. 5) Big Buck Hunter II - Sportsman's Paradise (v2. Chd Format Chd Format. If there is a download link on this page and you expect a torrent to be "well seeded" its VERY unlikely you will have much success - Our revenue funded Seedboxes usually only host for 90 days (more in some "collection" cases). metadata Different metadata and third-party DATs available to the systems. Generally, RetroArch's scanner is configured for ROMs that have been validated by No-Intro or. when the homebrew program is started from the bootstrap, often called IP. Xbox was the first independent project of Microsoft's on the gaming consoles market after a joint project with SEGA Company to develop a version of. 74 Mo Category Naomi Language Genre Platform Developer Sega Year 2001 Player (s) 1 - 2 Controller Controller Media Cartridge Online since 02/02/2013 This game has been downloaded 8242 times Direct Download. org dreamcast set is currently supported by reincast and redream emulators. The Sega Saturn is a 32-bit fifth-generation home video game console that was developed by Sega and released on November 22, 1994, in Japan, May 11, 1995, in North America and July 8, 1995, in Europe as the successor to the successful Sega Genesis. • This set was put together as a personal project, so it isn't as neat as the Redump or TOSEC sets. Prince Of Persia Arabian Nights Repack USA DC-ECHELON. This is Redump - Sega - Dreamcast (20160613) in torrentzipped format. This message by DKAngel has been removed from public view by porkiewpyne , Jun 12, 2018, Reason: Seriously?. It works great with REDUMP. This ISOs are known good dumps and their hash/CRC-32 matches redump's. 139) • (Complete FB Alpha v0. Please help Redump by scanning discs that you know are missing so that validated images can be included in future Redump 3DO reference sets. MAME Wii is an Arcade Emulator based on SDLMAME. Video game preservation is a collective effort. org Dreamcast set is currently supported by Reincast and Redream emulators. PSX Roms - Best way to organize games with multiple files and in your gamelist. There are 620 games on this list, which includes titles exclusive to North America, exclusive to Europe, and exclusive to Japan. web; books; video; audio; software; images; Toggle navigation. Can Demul play Redump Dreamcast full set? - [21:52] 30. bin file, but a lot of games ripped using the Redump method have multiple. RetroArch incoporates a ROM scanning system to automatically produce playlists. In addition to this, you will soon be able to run original game discs (CDs) from RetroArch. This banner text can have markup. This data wasn't designed to be used with the. It's 80Gb and it would be a problem to upload everything that is why i decided to share it via torrent. Each ROM that is scanned by the playlist generator is checked against a database of ROMs that are known to be good copies. Power Stone 2 USA DC-KALISTO. So i was thinking of replacing it with a dreamcast only drive, I dont casre if it doesnt do 360, just dreamcast. Replaced all the sets with GoodMerge, added DS and. Alerta pra galere: The Iso Zone, o site de retro-pirataria mais melhor de bom do mundo, não oferece mais downloads. Pause data is striped. Recompressed nearly everything in 7z where possible. This is Redump - Sega - Dreamcast (20160613) in torrentzipped format. as the name states C=compressed you get the benefit of having your files compressed like the set badboo has (GDI compressed in 7z format). We wouldn’t have the dats and sets today if it wasn’t for individuals paying it forward, awesome people like you! The reason why WE are the right choice for your video game preservation funds: Usage of funds / donations are all openly tracked and accounted for. Set a Prefer Bonus - this is the percentage added to the match score for each found word of the preferred words list in the rom file name 6. zip ( View Contents) 08-Feb-2017 13:01. 008: Original: T-3002D-50: F1 World Grand Prix II for Dreamcast F1 ワールド グランプリ II for Dreamcast: DC: 1. 3) Hello emulation fans, today we have an update for our Sega Dreamcast video snaps pack. Xbox was the first independent project of Microsoft's on the gaming consoles market after a joint project with SEGA Company to develop a version of. F1 World Grand Prix for Dreamcast F1 ワールド グランプリ for Dreamcast: DC: 1. scripts Various scripts that are used to maintain the database files. Note: Some GD-Roms will NOT dump with this method, and require a TOSEC-style SD Card dump for the HD area which then has to be "fixed" to meet redump spec. beatmania THE FINAL (ver JA-A) Big Buck Hunter - Shooter's Challenge (v1. The Best Sega Dreamcast Emulator for Android: Redream (full setup and review) If playback doesn't begin shortly, try restarting your device. Check redump. From what I understand Dolphin Blue was a japanese arcade shooter similar to the likes of Metal Slug or Gunstar Heroes, and it looks like it was only released in Japan in 2003 for arcade but people have managed to get it running on the dreamcast emulator Demul in spite of that. no scrolls. Includes manuals. zip [ Naomi arcade system BIOS pack [ custom ] naomi2. This helps you avoid downloading upwards of 400 gigabytes just to get only a fraction of the contents. Darkwater is a good set for Sega CD and Saturn. We have ROMs for many consoles such as GBA, SNES, SEGA, PSX, NINTENDO and more!. Complete ROM Set Download Links If you are on windows and have access to this link - Retro Up Beta then I suggest you use it. Replaced many of the older ROM sets with No-Intro. The column 'Likely matching an existing dump' is just an educated guess and not confirmed. nz Cowboy Bebop (Japan) (Redump) By ASR-94, Thursday at 07:11 PM in (PSX) NTSC-J Game Downloads. See GD-Rom SD Card Dumping Guide. Christchurch Place, Dublin, Ireland. 4 (Japan) (Disc 1) (Trial Disk). DreamKey 1. Play PS1 games like Resident Evil 3 - Nemesis [SLUS-00923], Tekken 3 [SCES-01237], Resident Evil 2 (Disc 1)(Leon)[SLES-00972] and Crash Bandicoot [SCUS-94900]. This banner text can have markup. when the homebrew program is started from the bootstrap, often called IP. The current 'dump' of 5000026 (made by concatenating a trimmed dump) is probably correct but needs verification. mame redump, You can see this confirmed by the filename of the included DAT. 3 comments. The top 25 Sega Dreamcast games; Features The top 25 Sega Dreamcast games. This message by DKAngel has been removed from public view by porkiewpyne , Jun 12, 2018, Reason: Seriously?. Other than GDI, CDI was the go-to format on Dreamcast so obviously it was the first thing I supported on other ODEs but support for CCD and MDS/MDF was added years ago. 8GB, Wikipedia Sega System 18: Collection - 300MB , Wikipedia Sega Model 2: Collection 1 - 660MB , Collection 2 - 535MB , Collection 3 - 1. • Set Sega Saturn, anche questo quasi completo. This banner text can have markup. Obviously when the set is renamed/amended it would render the cue file 'bad' and a 'redump' would be needed with the correct name. 【DC】DC官方游戏redump全集【1109个】。Redump是一种标准,这类游戏镜像经过镜像数据库redump. Converted nearly all CD sets to CHD format. org, No-Intro or TOSEC (Dreamcast specifically). 002: Original: T-3002M: F355 Challenge F355チャレンジ: DC: 1. org; Fullset of SNES USA manual scans at 800+ dpi raw tiff. Main Discs Downloads Palm OS • Panasonic 3DO Interactive Multiplayer • Philips CD-i • Photo CD • PlayStation GameShark Updates • Sega Dreamcast. There are 620 games on this list, which includes titles exclusive to North America, exclusive to Europe, and exclusive to Japan. Work more closely with archive. Pier Solar Dreamcast _GDI(SD AND IDE Dreamshell) By psobb2009, March 26, 2019 12 replies; 1,323 views; Ian Micheal; Saturday at 08:42 PM. dat Customized DAT files, maintained by the libretro team. These BIOS's can be used in any device, PC's, phones, tablets, RP (Raspberry Pi), so look no further you have found the best BIOS collection on the internet!. GameCube Information. 7z Sega DreamCast The Dreamcast is a home video game console released. Anonymous Fri Nov 21 15:22:35 2014 No. Open Club · 4 members. If you prefer another emulator, ask your favorite emulator devs to "Support the redump. Settings are also unified so configuration is done once and for all. iso and therefore may not work with some emulators (bin/cue preferred) TOSEC 3DO set; TOSEC Philips CD-i set; TurboGrafx-CD set Tru-Rip + Maybe-Intro (v2014) TurboGrafx-CD set Tru-Rip + Maybe. zip (View Contents) 09-Feb-2017 16:21: 681. for those having issues downloading, remove the "%20" at the end of the download URL after clicking "Download" Luan Conte Soares murgero92 • a year ago. org对比校验,理论上可以作为1:1原盘数据备份,以便用于再次的光盘制作及数据拷贝。. News Forums; All times are UTC; Contact us; Powered by phpBB® Forum Software © phpBB Limited phpBB® Forum. TuxTheWise is back and he has uploaded all his work at UG tracker. Mical of New Technologies Group, that could be licensed by third parties. Download section for Sega CD ROMs / ISOs of Rom Hustler. It was adapted to other media such as manga and drama CD. @Mick2K said in [BOUNTY] CHD Support for PCSX ReARMed: @rion As far as I know only the original pbp files that you can download from PSN are lossy compression. Sega Dreamcast: how its security works and how it was hacked. 100% Fast Downloads!. I found a list of games that had trouble playing from the hdd and did my best to patch them. Sega Dreamcast - SNES ROM HACKZ (FuZzCasT) 258 MB: 07/12/18: 0: 0 : Sega Megadrive emulator + loads of roms: 936 MB: 11/24/17: 0: 0 FuZzCasT - Sega Dreamcast Mini Entertainment Package [ROMS, MUSIC AND GAMES] 2 GB: 09/21/17: 0: 0 : Sega CD and Mega-CD 2016 Reference Set (Redump Validated ROMs) 92. If you can, get the TOSEC set! - Redump is a newer dumping group that started dumping around the same time TOSEC did, however they use PC. Introduction. A Database is attached. Please help us reach our goal as soon as possible. Mame Set Version : 0. Download Limit []. -devel-20170213022116-r25642. Redump Sega CD set for all regions. Obviously when the set is renamed/amended it would render the cue file 'bad' and a 'redump' would be needed with the correct name. 6M: Jimmy White's 2 - Cueball (Europe) (En,Fr,De,Es,It). 7z Ecco the Dolphin - Defender of the Future (Japan). Updated the MAME set to. Retro-Bit shows off its "improved" take on a Dreamcast controller, set for release this year. Many games for early arcade boards can be played with varying amounts of success. Chary, Apr 12, 2020, in forum: GBAtemp. If anyone needs assistance with dumping Dreamcast titles, please feel free to reach out to me. We have 66 Sega-Roms Game torrents for you!. Redump NEC - PC-FX. 100% Fast Downloads!. org Dreamcast set is currently supported by Reincast and Redream emulators. Our site is Updated regularly and always will be. com, and I've had numerous requests to compile a list of the games that still have not been ported elsewhere. What do the phrases 'EDC' and 'No EDC' mean on PSX files? I need some advice about PSX1 images please. [Dreamcast] GDEMU: Flashcard para Dreamcast (China) – Mandrileando says: 2020/01/04 at 11:57 […] nuestro GDEMU y por lo tanto aquí debe de estar la imagen del sistema GDEMU (llamada GDmenu y la podéis descargar en la página oficial del proyecto de GDEMU) que leerá el resto de carpetas y nos permitirá cargar el resto de imágenes. As you can see the redump version has 30 Audio tracks (bin files). High Speed Results: Sega Dreamcast - SNES - Massive ROM SET (FuZzCasT) Sega CD and Mega-CD 2016 Reference Set (Redump Validated. Many of you may still struggle to understand what the hell is TOSEC Dreamcast or Redump Dreamcast, what differences exists around them, or why you should care. Mame Set Version : 0. org BIOS section. Browse ROMs / ISOs by download count and ratings. Sega CD Emulator for Windows - Works Great. Legacy Of Kain Soul Reaver USA DC-KALISTO. RetroArch incoporates a ROM scanning system to automatically produce playlists. I'm considering ODEs, but there's a few out that I was looking at, eg. METHOD C uses CD Tool to align the laser and perform the dump. Retrogaming, émulateurs et téléchargement de ROMs. Sega Dreamcast Video Snaps Updated (v1. Such bootable programs are commonly named 1ST_READ. zip (View Contents) 09-Feb-2017 16:11: 789. A: Because Redump's Dreamcast dumping method dumps extra data from DC discs. If you prefer another emulator, ask your favorite emulator devs to "Support the redump. 37b5) • (Complete MAME 0. Box BIOS v1. For example, multi-disc support will be available by the time the units ship to customers and even in beta, it's already shown to be compatible with both the 'redump' set, as well as CDI and GDi images on the Dreamcast. As for my set it's hard to tell. For your convenience added optional NON-Redump version with single bin/cue set. There is also a folder containing a further 225 3D Boxes for games that are not in the ReDump Rom set. DOWNLOAD /roms/Ecco - The Tides of Time (Europe) (En,Fr,De,Es). Dreamcast ROMS Emulator for Windows - Works Good. Null DC has sat dormant for over 5 years leaving. cobhc2016 10 September 2019 09:50 #12 You mention trurip but this is in reference to redump. On one hand, from their official website. org dreamcast set is currently supported by reincast and redream emulators. lexarvn, CallmeBerto, PieMan6474 and 3 others like this. Hit the "Scan" button and get a tea as this can take a while 7. Null DC has sat dormant for over 5 years leaving. This banner text can have markup. Note: Many of these lists are very outdated. org; Fullset of SNES USA manual scans at 800+ dpi raw tiff. F1 World Grand Prix for Dreamcast F1 ワールド グランプリ for Dreamcast: DC: 1. If the above doesn't work and you are on Windows then I suggest these How to play games at Retro Uprising and Retro Uprising Game Menu. bin dc_flash J. great for preserving forged weapons and multiplying stat-ups. 4 Wheel Thunder (Europe) (En,Fr). These lists will not be 100% accurate, so please check redump. Hello And Welcome To My (Dominater01) Collection Of Rom Websites I've Collected (With Some Help) Just So We All Can Have A Place To Download Roms, This List Should Always Grow But Remember Its Just Me Collecting These So Anything Can Happen, Dead Links,Not Updated, Forgotten etc. Here is all what he has done for years. Donate Now: When we reach the current donation goal all software on Retro Uprising will be replaced with a new superior method for playing games online that will support all browsers, play many more games and consoles and fix errors in existing games. Last update: 2008-12-12. Browse: Top ROMs - By Letter - By Genre. Videos you watch may be added to the TV's watch history and influence TV recommendations. ic23_l (65536 bytes) - NEEDS REDUMP Is it a problem with the Atomware bios (works fine in Demul) file contents being wrong or is it the rom dumps contents being wrong. Play and download ROMs on your computer, online within your browser, or on your mobile device. Beatmania III Append Core Remix. scripts Various scripts that are used to maintain the database files. Open Club · 4 members. Note: Many of these lists are very outdated. We dumped in old flawed GDI format + ISO2048 + RAW audio using Dreamcast consoles, but the dumping software was unreliable and these dumps no longer exist anywhere. Play Dreamcast games like Sonic Adventure 2 (En,Ja,Fr,De,Es), Sonic Adventure, Resident Evil 3 - Nemesis and Resident Evil - Code - Veronica (Disc 1). By ihavetubes, Yesterday at 01:31 AM in (PS2) Game Downloads. tried with Lakka 2. I asked for permission to reupload it for public access and got approval. Phantasy Star Online Episode I & II Plus is a Action RPG video game published by SEGA, Sonic Team released on September 15, 2004 for the Gamecube. 2019/04/07. This is a collection of 3693 3D Boxes for the Japan Region Original Sony PlayStation. Shall I install emulationstation to circumvent this issue?. Complimentary High Speed internet in the rooms. tried with Lakka 2. zip [ Naomi arcade system BIOS pack [ custom ] naomi2. No preview available. [Dreamcast] GDEMU: Flashcard para Dreamcast (China) – Mandrileando says: 2020/01/04 at 11:57 […] nuestro GDEMU y por lo tanto aquí debe de estar la imagen del sistema GDEMU (llamada GDmenu y la podéis descargar en la página oficial del proyecto de GDEMU) que leerá el resto de carpetas y nos permitirá cargar el resto de imágenes. if you prefer another emulator, ask your favorite emulator devs to "support the redump. The naming convention is based on the 2019-3-31 ReDump set. You should also have free space equal to at least 1. Weather that be SNES, NES, 3DS, MAME, PS1, Gamecube ISOs, etc. iso and therefore may not work with some emulators (bin/cue preferred); TOSEC 3DO set; TOSEC CDi set; truip TurboGrafx-CD set; DS/DSi 2014 Fullset. Sega Dreamcast – Homebrew – Demos – [CDI] (TOSEC-v2012-02-27) Sega Dreamcast – Homebrew – Demos – [CDI] Download 43 téléchargements. Finish Wii PAL set for Redump. rdb The compiled RetroArch database files. What do the phrases 'EDC' and 'No EDC' mean on PSX files? I need some advice about PSX1 images please. @Mick2K said in [BOUNTY] CHD Support for PCSX ReARMed: @rion As far as I know only the original pbp files that you can download from PSN are lossy compression. Visual Pinball. - AM_RANGE(0x1400000, 0x1ffffff) AM_ROM AM_REGION("dvi", 0x00000) // reads from here during boss battles when the videos should be displayed at the offsets where the DVI headers are // as a result it ends up writing what looks like pointers to the frame data in the ram area above. Retro-Bit shows off its "improved" take on a Dreamcast controller, set for release this year. 5) Big Buck Hunter II - Sportsman's Paradise (v2. 7z ESPN NBA 2Night (USA). Redump PS1 sets: USA, JAP, PAL TOSEC Dreamcast set; TOSEC SegaCD and 32X set Format is. We’re going to be testing this out on various other 32bit ARM devices as well and rolling it out there as well. Game ROMs and emulators are available for all top consoles. padiglionevenezia. Darkwater is a good set for Sega CD and Saturn. A single set, a single archive, just 2 cues. Settings are also unified so configuration is done once and for all. web; books; video; audio; software; images; Toggle navigation. 37b5) • (Complete MAME 0. Prince Of Persia Arabian Nights Repack USA DC-ECHELON. 2019/04/07. ETA PRIME 101,989 views. beatmania THE FINAL (ver JA-A) Big Buck Hunter - Shooter's Challenge (v1. This is a list of all games for the Dreamcast video game console. rs232 serial peripheral. entirely discrete, no cpu, but 1 rom for serial character set translation and 2 roms for phoneme parameters. From what I understand Dolphin Blue was a japanese arcade shooter similar to the likes of Metal Slug or Gunstar Heroes, and it looks like it was only released in Japan in 2003 for arcade but people have managed to get it running on the dreamcast emulator Demul in spite of that. There are 620 games on this list, which includes titles exclusive to North America, exclusive to Europe, and exclusive to Japan. You are not authorised to read this forum. Gaming accessories and cheat devices for Pokemon Go, Nintendo 3DS, Nintendo DS, PS4, PS3, PS2, GameCube, Wii and Wii U. ZAPiT Games - Game Wave Family Entertainment System - Datfile (16) (2018-12-08 16-42-20) Set complet. 7M: Jissen Pachi-Slot Hisshouhou! @VPACHI Kingdom (Japan). Chd Format Chd Format. Here you can download our collection of Dreamcast Games/ISOs/ROMs. If anyone needs assistance with dumping Dreamcast titles, please feel free to reach out to me. General Format Dumping Guides. 5" HDD with 512bytes sectors, I wanted one for my ps3 that had problems with 4k devices that started appear back then. See GD-Rom SD Card Dumping Guide. This is a collection of 3693 3D Boxes for the Japan Region Original Sony PlayStation. bin" BINARY TRACK 02 AUDIO INDEX 00 00:00:00 INDEX 01 00:02:00 REM HIGH-DENSITY AREA. Collection-GamesX2” This content is 3 years old. Just a heads up for those who might be trying to dump Dreamcast discs, the Redump method does NOT work for dumping protos/GD-Rs. gdi file (ex 187 bytes) What d. The current 'dump' of 5000026 (made by concatenating a trimmed dump) is probably correct but needs verification. TOSEC uses the Dreamcast homebrew method. A holiday miracle! Re-added CD-i, PCECD, Dreamcast, 3DO, NGCD ISOs. lexarvn, CallmeBerto, PieMan6474 and 3 others like this. It enables you to run classic games on a wide range of computers and consoles through its slick graphical interface. It's 80Gb and it would be a problem to upload everything that is why i decided to share it via torrent. This is a list of all games for the Dreamcast video game console. Im using a 32gb and a 64gb micro sd in a sd card adapter (fat32 format) with no problems. org; Fullset of SNES USA manual scans at 800+ dpi raw tiff. If the game is a single track in the HD area, then the TOSEC-style dump will be equal a redump dump for HD area, LD area still needs Plextor dumping. Connect more apps Try one of the apps below to open or edit this item. Settings are also unified so configuration is done once and for all. 12 décembre 2018 2 février 2020 Redump. Generally, RetroArch's scanner is configured for ROMs that have been validated by No-Intro or. Or if it needs to happen after to link game data to the file (cover images still need the database files that are id'ed by cue/gdi crc for example, so they'd still be wrong. BIN eu_mcd1_9210. General GDI format represents gdi image set dumped with httpd-ack and used in Tosec and Trurip dumps. The MAME 2000 libretro core is now using the ARM-optimized Cyclone and DrZ80 CPU cores on PS Vita. Games like Fight Club had had some form of DRM where it would tell you at the main menu that you can't play it off of a hard drive but that was taken. The Dreamcast Broadband Adapter is one of the most awesome pieces of technology for a Sega Dreamcast system. The column 'Likely matching an existing dump' is just an educated guess and not confirmed. Download Game PS1, PSP, PS2 ISOs and other classic console Roms such as Mame, Neogeo, Atari, NES, SNES, GBA, N64, SEGA, Dreamcast, NDS and also Classic PC Game. I personally think this is great for Sega CD since they often seemed to do screwy things with their discs making a lot of programs choke on them. comes from The Redump. org systems. padiglionevenezia. 09 / 5 - 34 vote (s) Game Information. Over here, we have a great selection of console BIOS files to use on emulators like the Dreamcast Bios for Reicast on Android devices and many more. The original discussion topic is at Romshepherd (category "tools") * Can unscrub ISOs scrubbed with many tools (wiiscrubber, wit, WiiBackUp Manager). Mas calma, não se desesperem! Todo o conteúdo dele foi herdado por um novo site da mesma equipe do anterior. 39) Console ROM Reference Sets: • (Redump validated) • (ROM Hunter v11 TorrentZipped) • (Redump validated) • (TOSEC validated) • (Redump validated) The cover image for this collection is based on an image by Sam. ZAPiT Games - Game Wave Family Entertainment System. The top 25 Sega Dreamcast games; Features The top 25 Sega Dreamcast games. ⬇ Drag and drop your images here to upload them. Saturn was Sega's first next generation system that had a build in CD-Rom unit (Mega CD was just an addon for the Genesis). Replaced many of the older ROM sets with No-Intro. web; books; video; audio; software; images; Toggle navigation. Settings are also unified so configuration is done once and for all. when the homebrew program is started from the bootstrap, often called IP. Some games may not be available in certain countries. metadata Different metadata and third-party DATs available to the systems. There is an Autoban set for 1 hour if you do more than 50 failed attempts, so if you don't get in after a few tries please try again later BTW you guys have done over 1. - The IBM PC section now has over 18. RetroArch incoporates a ROM scanning system to automatically produce playlists. 008: Original: T-3002D-50: F1 World Grand Prix II for Dreamcast F1 ワールド グランプリ II for Dreamcast: DC: 1. Play and download ROMs on your computer, online within your browser, or on your mobile device. These lists will not be 100% accurate, so please check redump. This grants 80 uses to the item, granted it has a numerical value attached to it, i. All latest and best psx games download. 7z ESPN International Track & Field (USA). REDUMP had the brilliant idea of using. No need to use mini-DVD for GC roms. Goodsets basically collect together as many known dumps as possible into one set. have only try with very common games like sega rally, panzer dragon 1+2, die hard arcade same with: NEC - PC Engine CD - TurboGrafx-CD Full Set (ReDump 20161106) and Sega Mega-CD and Sega-CD Reference Set (ReDump 20160827) 6 weeks after ending my Super Famicom fullset, i. These BIOS's can be used in any device, PC's, phones, tablets, RP (Raspberry Pi), so look no further you have found the best BIOS collection on the internet!. Includes DAT files to verify with ClrMamePro. Here is all what he has done for years. Name MAME support ROMs Description Game Wave: None Redump: A failed attempt to steal sales from the upcoming Nintendo Wii, the Game Wave was an obscure console released in 2005 by ZAPiT Games that only had. PlayStation Redump: USA (2015-05-24), Japan (2015-11-03), Europe (2015-11-03) TOSEC Dreamcast set TOSEC Sega CD and 32X set Format is. Use dctools and the audio trap disc to hotswap the GD-ROM. As you can probably guess, the game itself is stored in this section. There is an Autoban set for 1 hour if you do more than 50 failed attempts, so if you don't get in after a few tries please try again later BTW you guys have done over 1. 3 comments. Collection-GamesX2” This content is 3 years old. Dreamcast is the first representative of the sixth-generation consoles from Sega developers. Filename naomigd. 00: Titoph: 184: 18/06/12: 0: NEC. I downloaded jet set radio ROMs from redump ROM set. News Forums; All times are UTC; Contact us; Powered by phpBB® Forum Software © phpBB Limited phpBB® Forum. Sega Dreamcast - SNES ROM HACKZ (FuZzCasT) 258 MB: 07/12/18: 0: 0 : Sega Megadrive emulator + loads of roms: 936 MB: 11/24/17: 0: 0 FuZzCasT - Sega Dreamcast Mini Entertainment Package [ROMS, MUSIC AND GAMES] 2 GB: 09/21/17: 0: 0 : Sega CD and Mega-CD 2016 Reference Set (Redump Validated ROMs) 92. Guilty Gear has generally received praise from video game reviewers for its highly. Sega Dreamcast (NTSC-U) - Missing Games. While a good deal of the most popular games have transitioned over to newer consoles, there are still a surprising amount of quality titles […]. Null DC has sat dormant for over 5 years leaving. - Fixed multi-bin format in Windows version (redump format). Nec Pc 9801 Full Rom Set. Show more replies. The Scanner gives no result unless the cue sheet is zipped for each game manually - doing that can be a bit painful on hundred of games. if you prefer another emulator, ask your favorite emulator devs to "support the redump. I'm considering ODEs, but there's a few out that I was looking at, eg. Beatmania III Append 7th Mix. Now we include CloneCD/TruRip dumps, homebrew dumps and the like, these either aren't in an affected file format and/or the image(s) name(s) are simply "data. Redump Saturn Complete set (2015-09-13). Les jeux vidéo ont aussi leur histoire !. * Can decrypt/encrypt ISOs Changelog v0.