Spoonie Gee & The Sequence - Monster Jam. The price for the digital bootlegs will be $9. 09 - Garden. 6 MB) 05-pearl_jam-alright. flac 04 - Quick Escape. Produced by Brendan O’Brien, the album marks Pearl Jam’s first studio album since the highly acclaimed Backspacer, which was released nearly four years ago in September of 2009. Crazy Mary 19. Ten (FLAC 24-bits / 88. please and thank you for FLAC Nov 5, 2019 11:02:57 GMT -5. 01 - Who Ever Said. It was Pearl Jam's first and only release for J Records, their last album issued by Sony Music. alive Scanner Internet Archive HTML5 Uploader 1. Pearl Jam - Hartford, CT October 25, 2013 download flac Pearl Jam - 7. Bass & Treble was accentuated in left channel to bring out Jeff's bass and Mike's lead guitar. cesaredb1978. flac 32 MB; 10 - Deep. Band: Pearl Jam Album: Gigaton Country: USA Genre: Alternative Rock / Grunge / Hard Rock Quality: Mp3, CBR 320 kbps (CD-Rip) / FLAC (tracks. 4K Lost Dogs; 57. Lauderdale, Florida, USA 2000-08-20 Setlist: Out from the asylum Welcome home The invisible guests Voodoo Sarah's night Sleeples. It's All Or None - Pearl Jam Bootlegs 2003 Tuesday, August 10, 2010 FLAC 1. 5 MB) 09-pearl_jam-buckle_up. Who Ever Said (5:12). Listen to live concerts at nugs. Buy, preview and download over 19 million tracks in our store. 8 Info: Label: Epic ‎– E2K 87259 Series: Pearl Jam 2003 Official Bootlegs – #10 Type: 2 x CD, Album Country: US Date of released: 2003 Category: Rock Style: Alternative Rock, Grunge: Other format: MP3 APE APE DXD WAV MPC WMA MP4 VOC. R á@”JÎÏÝÐ6‡QøK{,*Rõ¾ ¾÷ =ïÄËÚÈ’ ÍüJÄïîË}WUƒŠì Qº‡ € ßÒX3 !9#MH¢v. Kaufen, hören Sie vor und downloaden Sie über 30 Millionen Musiktitel in unserem Shop. org:696913:announce-listll40:udp://tracker. :) Bored ? Go to my channel to find more HQ music. Pearl Jam - Los Angeles, California - July 13 & 14, 1998 Here are a couple of great shows from the 1998 Tour. Buy, preview and download over 30 million tracks in our store. Superblood Wolfmoon (3:49). Pearl Jam – Gigaton (2020) Hi-Res. flac 03 - Dance of the Clairvoyants. Исполнитель: Pearl Jam. 1 kHz (Tracks) Artist: Pearl Jam. Following the disbanding of bassist Jeff Ament and guitarist Stone Gossard's previous group Mother Love Bone, the two recruited vocalist Eddie Vedder, guitarist Mike McCready, and drummer Dave Krusen to form Pearl Jam in 1990. Never Destination08. Lightning Bolt is Pearl Jam's tenth, much-anticipated studio album. no paro de escucharlo. Binaural kicks out the jams with a grandiosity worthy of the Who, as Pearl Jam roars through the loose, raucous two-minute-plus opener "Breakerfall" and into another brief rave-up, "God's Dice. flac Free Download: PEARL. CD-MMXX torrent or any other torrent from Lossless category. to Pearl Jam - Ten (1992) FLAC Soup Music Lossless 4 months thepiratebay. 9K Pearl Jam's Music and Activism; 102. Download PEARL. Dark - Dark Round The Edges. The sound quality is superb!! This is the best sounding Tool bootleg I. This is the earliest known studio record of Pearl Jam (that time as Mookie Blaylock) with Eddie Vedder on vocals. Pearl Jam Concert Setlists & Tour Dates. was released on October 19, 1993 -- it debuted at #1 on the Billboard 200 chart, and sold over 6 million copies. 5 MB 1998 - Yield/03 - No Way. F Bb I have been planning out all that I'd say to you. Format : Flac (tracks+. 0 % Test CRC 54044306 Copy CRC 54044306 Cannot be verified as accurate (confidence 38) [450FAC6F], AccurateRip returned [33360CC8] Copy OK No tracks could be verified as accurate. 1 16 Bit | 44. Dance Of The Clairvoyants04. JAM-GIGATON-24. Pearl Jam GIGATON 2020 FLAC CD Seeds: 19, Peers: 3 limetorrents Audio , Size: 391. It contains very early versions of Life Wasted, Severed Hand, and Big Wave, two more songs with vocals - Open Road and 10 Billion Years (stone) - and 6 additional instrumentals. See wikipedia for additional info about other band members. 1 track · 5 September 2011. Notes: Left & right channels were EQ'ed differently to create stereo channel separation. The band's fifth and current drummer is Matt Cameron of Soundgarden, who has. 99 Needle - Kelly Green Tee $24. Once 0 Pearl Jam - Ten (1991) [24 bit FLAC] vinyl. esto esta de novela. Quick Escape (4:47) 05. plus-circle Add Review. CD-MMXX torrent or any other torrent from Lossless category. was the first Pearl Jam album to have production duties handled by producer Brendan O'Brien. Year Of Release: 2013 Genre: Alternative Format: Flac, Tracks Bitrate: lossless, 24bit Sample Rate: 88200Hz Audio Channels: 2. 4K Flea Market; 33. Take The Long. Ten, Ten Redux, Vs (Remastered) & Vitalogy (Remastered) 24 Bit Flacs were available for a while now. Vocals-Eddie Vedder. Lightning Bolt features the singles “Sirens” and “Mind Your Manners”. Available in ALAC, ALAC-HD (24 bit/96KHz), MP3(256 kbit/s VBR), FLAC and FLAC-HD (24 bit/96KHz). Download torrent. 2017 Composer: Various Genre: Rock Quality : Flac HRA 24bits/192. fennnnny原抓:Pearl Jam《Ten》1991/FLAC/分轨/BD,简介 · · · · · · 樂迷常說Pearl Jam是Sony為與Nirvana打對台而捧出來的Grunge樂隊,當年. Pearl Jam - Ten (1991) [FLAC] Addeddate 2020-03-27 20:54:18 Identifier a3. ‰5ÈÅÕ,ábÅÚ°¸ Úô ê>R0ز’àÖ JLe ¸`]æ = ï× KòÓt[ø9¹! A怤 I^ÞÌ. log 5 KB; Pearl Jam - Ten. However, where the file should be named "01 Go. Even Flow (04:53) 03. Notes:Left & right channels were EQ'ed differently to create stereo channel separation. 29 MB) Pearl Jam - Soldier Of Love - 2:54 (920 kbps , 19. In Italy it was put on sale in February of the following year. FLAC 2 MP3. 3 MB) 10-pearl_jam-comes_then_goes. flac 01_-_Getaway. High quality Pearl Jam MP3 downloads from zdigital Australia. Filename E:\Pearl Jam\2009 - Ten Redux (Deluxe Edition) CD2\15 - State Of Love And Trust (Demo). See wikipedia for additional info about other band members. 09 - Garden. Better Man 18. Pearl Jam's rumored 2020 world tour announced was leaked a few days ago. [14] Also available on the Lost Dogs album. Pearl Jam - Ten [Redux] - 1991/2013, FLAC 24/88 1 Once2 Even Flow3 Alive4 Why Go5 Black6 Jeremy7 Oceans8 Porch9 Garden10 Deep11 Release; Master / Slave12 Brother13 Just a Girl14 Breath and a Scream15 S. It reached number 2 on the Billboard Hot 100, giving Pearl Jam its biggest hit to date. Tracklist: 1 Sometimes 02:41 2 Hail, Hail 03:42 3 Who You Are 03:49 4 In My Tree 03:59 5 Smile 03:52 6 Off He Goes 05:59 7 Habit 03:36 8 Red Mosquito. [Legacy Edition]) 1994 - Vitalogy [Legacy Edition]) 1996 - No Code 1998 - Yield 2000 - Binaural 2002 - Riot Act 2006 - Pearl Jam 2009 - Backspacer 2013 - Lightning Bolt Compilation albums 2003 - Lost Dogs (2CD). Pearl Jam 10/12/2014 Austin City Limits Music Festival, Austin, TX : Available: Pearl Jam 10/14/2014 FedEx Forum, Memphis, TN : Available: Pearl Jam 10/16/2014 Joe Louis Arena, Detroit, MI : Available: Pearl Jam 10/17/2014 iWireless Center, Moline, IL : Available: Pearl Jam. flac 49 MB; Cover. Superblood Wolfmoon03. November 2, 1995. Pearl Jam MP3-Downloads von 7digital Deutschland in höchster Qualität. Pearl Jam - MTV Unplugged (2019) [320 KBPS] [pradyutvam] -pradyutvam. Free Download Lossless Music. was the first Pearl Jam album to have production duties handled by producer Brendan O'Brien. PEARL JAM GIGATON FLAC CD MMXX PANDEMIC. Even Flow 3. Label: Epic - EK 66900,Epic - EK 66900-S1 • Format: CD Album, Reissue • Country: US • Genre: Rock • Style: Grunge Featuring lyrics written by vocalist Eddie Vedder and music by bassist Jeff Ament"Nothingman" is the fifth track on the band's third studio album, Vitalogy The song was included on Pearl Jam's greatest hits album, Rearviewmirror Greatest Hits — They were very spontaneous. Learn More & sign up. net or download our mobile music app. 00 Choices - Black Tee $24. Guitar-Stone Gossard. Neil Young [Mountain View, CA 10-23. leechers: 3. Lead Guitar-Mike McCready. November 4, 1995. Download Pearl Jam - Gigaton (2020) Mp3 320kbps Album [PMEDIA] ⭐️ torrent or any other torrent from MP3 category. Lead Guitar-Mike McCready. Pearl Jam - rearviewmirror (Greatest Hits 1991-2003) (2004) rearviewmirror: Greatest Hits 1991-2003 is a two-disc compilation album by Pearl Jam. Pearl Jam - Ten 24bit 88kHz now available at HDTracks. 00 Choices - Black Tee $24. 8 MB Pearl Jam - 01 - Once. Buy, preview and download over 30 million tracks in our store. esto esta de novela. 2006 - Pearl Jam/05 - Marker in the Sand. PEARL JAM - "Even Flow" Full Guitar Cover (Stone and Mike Parts) Let The Records Play flac Pearl Jam. Quality: FLAC (tracks) Total Time: 16 albums + singles Total Size: 9. Pearl Jam – Ten 24 bit Hi-Res. Pearl Jam - Ten [Redux] (2013) [Hi-Res stereo] 2016-2-12 | Download more: Category » Hi-Res, DSD, Vinyl Container: FLAC (tracks) Quality: Hi-Fi, lossless audio Sample Rate: 88. Pearl Jam - MTV Unplugged (2019) [320 KBPS] [pradyutvam] -pradyutvam. Pearl Jam - Gigaton (Explicit) (2020) [96hz - 24bit]-was95. Pearl Jam - Las Vegas, Nevada - October 22, 2000 MP3 version. The sound quality is superb!! This is the best sounding Tool bootleg I. Ten was Pearl Jam's first studio album and is their most successful record to date, selling more than 10 million copies in the US as of 2013. Buy, preview and download over 19 million tracks in our store. Part of the '90s Seattle grunge triumvirate completed by Nirvana and Soundgarden, Pearl Jam debuted with Ten, their most accessible, least self-conscious album. Format : Flac (tracks+. Pearl Jam - Ten flac download. Urgency has been Pearl Jam's calling card since their inception, which is why it was a jolt to hear the band sound so settled on 2013's Lightning Bolt. If anything, Pearl Jam was even more in the wilderness -- at least as far as the mainstream was concerned -- at the beginning of 2000 than they were in the second half of the '90s. a momentary lapse of reason a moon shaped pool a saucerful of secrets amnesiac animals atom heart mother backspacer binaural flac guns roses half to the thief inrainbows kid a lightning bolt meddle more no code obscured by. Pearl Jam 10/12/2014 Austin City Limits Music Festival, Austin, TX : Available: Pearl Jam 10/14/2014 FedEx Forum, Memphis, TN : Available: Pearl Jam 10/16/2014 Joe Louis Arena, Detroit, MI : Available: Pearl Jam 10/17/2014 iWireless Center, Moline, IL : Available: Pearl Jam. Vocals-Eddie Vedder. Pearl Jam - Gigaton: GetRock: 28-03-2020, 12:51 : 1141 : 0 100; Artist: Pearl Jam Album: Gigaton Genre: Alt Rock / Grunge Country: USA Released: 2020 Format: MP3 320 / FLAC (CD-Rip) Tracklist 01. Quick Escape05. Who Ever Said (5:12) 02. Of course we're talking about the best band from the 1990s featuring Eddie Vedder, Mike McCready, Stone Gossard, Jeff Ament, and Matt Cameron. Ten, the debut album that sold 12 million copies and introduced the world to Pearl Jam in 1991, will be reissued on March 24, 2009. Pearl Jam - Alive (05:40) 04. Pearl Harbor 2001 BluRay 1080p x264 2. Dance Of The Clairvoyants [7" 45RPM single edit] (3:36)Eleventh studio album by the American rock band. November 4, 1995. The poster is approx 18"x24" and is in excellent condition. Source: "Anxiety" bootleg CD (Monkeywrench FM broadcast) Lineage: boot CD > WAV > dEQ > FLAC. no paro de escucharlo. flac Free Download: PEARL. 01 Poster Outside. Download Pearl Jam September 22, 2005, Metro Centre, Halifax, NS MP3 and FLAC. Lauderdale, Florida, USA 2000-08-20 Setlist: Out from the asylum Welcome home The invisible guests Voodoo Sarah's night Sleeples. esto esta de novela. Uploaded 07-29 2013, Size 1. flac 10 - Comes Then Goes. 24 MB] 07 - Unemployable. Superblood Wolfmoon (3:49) 03. Superblood Wolfmoon03. Deal: Pearl Jam: 34 Free Live Albums for Download 1990-2014, Store: , Category: Entertainment. 9K Pearl Jam's Music and Activism; 102. Pearl Jam - Ten (1991) FLACArtist: Pearl JamTitle: TenYear Of Release: 1991 LPLabel: Epic AssociatedGenre: Grunge, Hard RockQuality: FLAC (HDtracks) 24bit96kHz VinylTotal Time: 53:27Total Size: 1. Of The Girl. Pearl Jam's Vs. Originally released 1996. 05 Everyone needs somebody 4:04. Salt Lake City, UT. Pearl Jam (sometimes referred to as The Avocado Album or simply Avocado) is the eighth studio album by American alternative rock band Pearl Jam, released on May 2, 2006 on J Records. Artist: Pearl Jam Title: Dance Of The Clairvoyants Year Of Release: 2020 Label: Republic Records Genre: Rock Quality: Mp3 320 kbps / FLAC (tracks) / 24bit-96kHz FLAC (tracks) Total Time: 04:25 Total Size: 10. Nakupujte jednotlivé skladby nebo celá alba interpreta Pearl Jam, a to v digitálním formátu MP3, FLAC/Hi-Res (WAV) či ve fyzické podobě na CD i LP (vinyl). Exact Audio Copy V0. Pearl Jam 10-24-96 Millstreet Arena Cork, Ireland Source: Core Sound Binaurals -> Sony TCD-D7 Lineage: DAT(c) 48khz -> FLAC Transfer: DA-20 -> Monster coax -> DiO 2496 -> CEP 2. 2010 at 12:09 Nirvana's Nevermind may have been the album that broke grunge and alternative rock into the mainstream, but there's no overestimating the role that Pearl Jam's Ten played in keeping them there. It was Pearl Jam's first and only release for J Records, their last album issued by Sony Music. flac 06 - Seven O'Clock. Posted by allornonebootlegs at 10:32 AM No comments: Email This BlogThis! Share to Twitter Share to Facebook Share to Pinterest #72 Palacio de Los Deportes, Mexico City, Mexico - July 18th 2003. JAM-GIGATON-FLAC. Produced by Brendan O'Brien, the album marks Pearl Jam's first studio album since the highly acclaimed Backspacer, which was released nearly four years ago in September of 2009. 03 I Won't Back Down 4:44. 0 Yesterday 06:29 AM » Views: 43 Internet Download Manager v6. Top downloads. flac 04 - Quick Escape. 15 MB , Uploaded: 4/10/2020. Performer: Pearl Jam Title: State College, PA - May 3rd 2003 Style: Alternative Rock, Grunge Released: 2003 Country: Europe MP3 album: 1424 mb FLAC album: 1347 mb WMA album: 1809 mb. Label: Epic - none,Legacy - none • Format: 13x, File FLAC, Album, Reissue, Remastered 24-bit - 44. English Pop - Rock. Listen to live concerts at nugs. Who Ever Said02. flac 08 - Take The Long Way. Artist: Pearl Jam , Tour: The Home X Away Shows , Venue: Fenway Park , Boston, MA. Pearl Jam - Vault#5 - 1993/11/30, Las Vegas, NV Pearl Jam - Vault#4 - 2000/05/10 Bellingham, WA Pearl Jam - Vault#3 - 1998/09/19, Constitution Hall, Washington, DC. Listen to this and millions more tracks online. you can download in Pearl Jam – ’94 Broadcast Session (2020) mp3 and m4a and absoluteli format. Files are downloaded using the Nugster App, provided with download. Never Destination 08. 7K Poetry, Prose, Music & Art; 1. flac 03 - Dance of the Clairvoyants. Be the first one to write a review. Buy, preview and download over 30 million tracks in our store. 10 kHz File release of Pearl Jam (2017 Mix) on Discogs. By admin flac-music 2020, Hi-Res & Vinyl, Indie, Alternative, Rock 0 Comments. 8 Info: Label: Epic ‎– E2K 87259 Series: Pearl Jam 2003 Official Bootlegs – #10 Type: 2 x CD, Album Country: US Date of released: 2003 Category: Rock Style: Alternative Rock, Grunge: Other format: MP3 APE APE DXD WAV MPC WMA MP4 VOC. 03 I Won't Back Down 4:44. 09 - Garden. They are offering both the remastered and remixed versions. leechers: 3. 3 (x64) macOSX Yesterday 03:48 PM » Views: 23 CyberLink PowerDirector Ultimate v18. Release 12. 1K Other Music; 17. November 4, 1995. It's All Or None - Pearl Jam Bootlegs 2003 Tuesday, August 10, 2010 FLAC 1. Also by Pearl Jam. Memorabilia Price Guide for Pearl Jam. zip : 362,42 MB… Download more publications by: Pearl Jam ›. The sound quality doesn't change if u pick 144p or 720p so if u are in your smartphone pick 144p! and don't use too much data for good music!. 3 KB) Pearl Jam - Gigaton. PEARL JAM GIGATON FLAC CD MMXX PANDEMIC. Seven O'Clock07. folder disappears and, strangely, a folder "The North\Fortune Told Her" shows up with all 12 songs from the Pearl Jam Vs. The sound quality doesn't change if u pick 144p or 720p so if u are in your smartphone pick 144p! and don't use too much data for good music!. 96-FLAC-2020 torrent or any other torrent from Lossless category. But it all worked out well. wav Peak level 98. Pearl Jam - Dance Of The Clairvoyants (2020) [Single] FLAC Rock 24-01-2020, 16:43 site to download free music, roylty free music, library music, royaltyfree music, free music downloads sites, stock music licensing. Pearl Jam - Gigaton (Explicit) (2020) [96hz - 24bit]-was95. Pearl Jam: The Jam Machine. Alive (live) Album Discografias Brasil Greatest Hits Single Soundtrack Ao vivo Mtv FLAC. 1 MB) 03-Alive. Pearl Jam - Ten [Redux] (2013) [Hi-Res stereo] 2016-2-12 | Download more: Category » Hi-Res, DSD, Vinyl Container: FLAC (tracks) Quality: Hi-Fi, lossless audio Sample Rate: 88. 89 GB 1991 - Ten [Redux] (2013) [24-88] 1996 - No Code (2016 Remaster) [24-192] 2002 - Riot Act [24-96]] 2006 - Pearl Jam (2017 Mix) [24-44. Explicit Content Pre-escucha The Very Best Of Pearl Jam: In Concert on Air 1992 - 1995, Vol. New Albums 2020; March 25, 2020. I always liked Ten, it was an amazing debut and a truly great collection of songs, but personally when Vs. Rock, Grunge, Hard Rock RAR Size: 1. JAM-GIGATON-24. Recorded in 1991, Ten and the muscular melodic rock of tracks like "Jeremy," "Alive" and "Evenflow" brought Pearl Jam massive crossover success. Artist: Pearl Jam Title: Discography Year Of Release: 1991-2017 Label: Epic Monkeywrench Genre: Alternative Rock Quality: FLAC (tracks) Total Time: 16 albums + singles Total Size: 9. Released Aug. У нас можно скачать все новики музыки через торрент. Preview, buy and download high-quality MP3 downloads of Ten Redux by Pearl Jam from zdigital Australia - We have over 19 million high quality tracks in our store. zip 129 MB +3. See wikipedia for additional info about other band members. 8 MB) 04-Why Go. Adrian Moore, Dave Hills, Don Gilmore. 3 KB) GHETTO-MMXX. Tracklist: 01. Quality: FLAC 16 bit / 44. was the first Pearl Jam album to have production duties handled by producer Brendan O'Brien. Over time, PJ's rep as a politically correct band just a little too above it all to prostitute its music on MTV has nearly superseded the music. 9 MB 04 - Quick Escape. Team: -Tim Bierman -Peter Crosby -Regan Hagar. org:696913:announce-listll40:udp://tracker. Pearl Jam - Pearl Jam (2006) [2017 Mix] FLAC (tracks) 24-bit/44,1 kHz | Time - 49:36 minutes | 615 MB Studio Master, Official Digital Download | Artwork: Front cover On its self-titled 2006 album, the band's first for J Records, Pearl Jam offers up a vital and assured set of songs that nods to the Seattle-based group's early-1990s heyday while revealing a slightly updated and streamlined. 1 + BDRip 720p/1080p Pearl Jam - Riot Act (2002) [Official Digital Download 24bit/96kHz]. 37 Build 11 Yesterday 06:25 AM » Views: 38 Mirillis Action! v4. 01 - Who Ever Said. Categories : Pearl Jam Official Bootlegs s live albums s live albums. Adrian Moore, Dave Hills, Don Gilmore. 1 kHz (Tracks) Artist: Pearl Jam. Available in ALAC, ALAC-HD (24 bit/96KHz), MP3(256 kbit/s VBR), FLAC and FLAC-HD (24 bit/96KHz). 1990 - Present. Albums de Estúdio 1991 - Ten 1991 - Ten (Deluxe Edition, 2 Disc) 2009 1993 - Vs 1994 - Vitalogy (2011 Remaste. Renaming themselves Pearl Jam, the band recorded their debut album, Ten, in the beginning of 1991, although it wasn't released until August; in the meantime, the majority of the band appeared on the Andrew Wood tribute project Temple of the Dog. It's All Or None - Pearl Jam Bootlegs 2003 Tuesday, August 10, 2010 FLAC 1. Lauderdale, Florida, USA 2000-08-20 Setlist: Out from the asylum Welcome home The invisible guests Voodoo Sarah's night Sleeples. Lyrics by Eddie Vedder. info Hash. 63 GB , Magnet, Torrent, , infohash : 9cc51636cce963fd0d626e2df1ef94fd17ea7abe , Total Files : 17. flac 07 - Never Destination. The price for the digital bootlegs will be $9. 2 (Live) (Explicit) Pearl Jam 2016 From $10. Cello-Walter Gray. flac 06 - Seven O'Clock. Kaufen, hören Sie vor und downloaden Sie über 30 Millionen Musiktitel in unserem Shop. 10-pearl_jam-comes_then_goes. 3K Not Pearl Jam's Music; 10. FLAC 2 MP3. 7K A Moving. The Afghan Whigs - Live In New York City [2012] USA Indie Alternative Rock Post Grunge s. , featured a rawer and more aggressive. See wikipedia for additional info about other band members. Following the disbanding of bassist Jeff Ament and guitarist Stone Gossard's previous group Mother Love Bone, the two recruited vocalist Eddie Vedder, guitarist Mike McCready, and drummer Dave Krusen to form Pearl Jam in 1990. Rooster Tool - Kalamazoo, MI 7/15/1998: FLAC 1 FLAC 2 FLAC 3 FLAC 4 This is an unbelievable soundboard recording that has been digitally remastered. FLAC Bit Depth 16 bits Sampling Rate 44. Once (03:51. wav Peak level 100. Various - Veronica The Smart One: Top 100 - 2000 Nummer 01 FLAC version. 89 GB 1991 - Ten [Redux] (2013) [24-88] 1996 - No Code (2016 Remaster) [24-192] 2002 - Riot Act [24-96]] 2006 - Pearl Jam (2017 Mix) [24-44. liner notes are not available. Ten 1991 Ten is the debut studio album by the American alternative rock band Pearl Jam, released on August 27, 1991 through Epic Records. Performer: Pearl Jam Title: State College, PA - May 3rd 2003 Style: Alternative Rock, Grunge Released: 2003 Country: Europe MP3 album: 1424 mb FLAC album: 1347 mb WMA album: 1809 mb Rating: 4. Автор: Traktonberg 3-04-2020, 16:57 Комментарии. 1 Favorite. 10/4/2000 Montreal, Quebec MP3 10/5/2000 Toronto, Ontario MP3 10/7/2000 Auburn Hills, Michigan MP3 10/8/2000 East Troy, Wisconsin MP3 10/9/2000 Chicago, Illinois MP3 10/11/2000 Maryland Heights, Missouri MP3 10/12/2000 Kansas City, Missouri MP3 10/14/2000 The Woodlands, Texas MP3 10/15/2000 The Woodlands, Texas MP3. 79 MB Pearl Jam - 09 - Garden. The group consisted of Cheryl "Cheryl the Pearl" Cook, Gwendolyn "Blondie" Chisolm, and Angie "Angie. Electronic. Artist: Pearl Jam Album: 2012 Annual 10 Club Single Live from Alpine Valley 2011 Released: 2013 Style: Alt Rock Format: MP3 320Kbps / FLAC Size: 16 Mb Read the rest of this entry ». The artist is Steve Thomas. A Pearl Jam 2006-ban elsőként adta ki a Life Wastedhez készült klipjét a Creative Commons licenc alatt. 0 Yesterday 06:29 AM » Views: 43 Internet Download Manager v6. Take The Long Way (3:42) 09. Notes:Left & right channels were EQ'ed differently to create stereo channel separation. 08 Something Big 6:46. leechers-paradise. 0 MB) 09-Garden. estuve toda la tarde. Maybe it's the times, maybe it's the choice to switch producers — the group swapped their longtime collaborator Brendan O'Brien for Josh Evans, who co-produced the album with the. Pearl Jam - Gigaton (Explicit) (2020) [96hz - 24bit]-was95. Pearl Jam - Ten 24bit 88kHz now available at HDTracks. 4K Lost Dogs; 57. Pearl Jam (Discografia completa) 1. Just a Girl 14. 10 Free Falling 6:07. It reached number 2 on the Billboard Hot 100, giving Pearl Jam its biggest hit to date. In Italy it was put on sale in February of the following year. Animal Years - Sun Will Rise [2013] USA Indie Alternative Rock s. Download PEARL JAM-GiGATON-(B0031607-01)-LP-16. 2 kHz (Tracks). R á@”JÎÏÝÐ6‡QøK{,*Rõ¾ ¾÷ =ïÄËÚÈ’ ÍüJÄïîË}WUƒŠì Qº‡ € ßÒX3 !9#MH¢v. 3 (x64) macOSX Yesterday 03:48 PM » Views: 23 CyberLink PowerDirector Ultimate v18. Dance Of The Clairvoyants04. [Legacy Edition]) 1994 - Vitalogy [Legacy Edition]) 1996 - No Code 1998 - Yield 2000 - Binaural 2002. flac 06 - Seven O'Clock. Since its inception, the band's line-up has included Stone Gossard (guitar), Jeff Ament (bass), Mike McCready (guitar), and Eddie Vedder (vocals). Pearl Jam – Ten 24 bit Hi-Res. liner notes are not available. Since its inception, the band's line-up has included Eddie Vedder (lead vocals, guitar), Jeff Ament (bass guitar), Stone Gossard (rhythm guitar), Mike McCready (lead guitar), and drummer Matt Cameron, who has been with the band since 1998. 3 (see all. 0 % Extraction. High quality Pearl Jam music downloads from 7digital United Kingdom. 5K Musicians and Gearheads; 28. Rearviewmirror Encore 2: 21. Pearl Jam - Austin, TX - October 12, 2014 flac download Pearl Jam - One Way Needle flac download Pearl Jam - PJ20 flac download Pearl Jam - Live On Air flac download Pearl Jam - Aladdin Las Vegas 1993 Radio Broadcast flac download Pearl Jam - Twenty - Original Motion Picture Soundtrack flac download Pearl Jam - Totally Destroys Osaka flac download. The Very Best Of Pearl Jam: In Concert on Air 1992 - 1995, Vol. 58 MB] 05 - Marker In The Sand. ***PLEASE NOTE**** The encore tracks from this show are not available from the original multi-track source and therefore are only available in MP3 format. More Pearl Jam Greatest Hits available on the site. com Pearl Jam - Ten (1992) FLAC Soup music 4 months torlock. 1 MB) 06-pearl_jam-seven_oclock. 78 GB PEARL JAM-GIGATON-FLAC-2020 371 MB PEARL JAM Discography STUDiO [2020] 11 CD FLAC 3. 00 Choices - Black Tee $24. alive Scanner Internet Archive HTML5 Uploader 1. FLAC 2 Sources Mix: Monkey Wrench Mono FM + CS > D7 > 3 CD-R Source Information - Download Text | Download Zip 1995-07-11 Pearl Jam: Soldier Field: Chigao, IL. Source: www. leechers-paradise. Pearl Jam - Gigaton. The success of the album was driven by the group's intensive touring. Pearl Jam - Dance Of The Clairvoyants (2020) [Single] FLAC Rock 24-01-2020, 16:43 site to download free music, roylty free music, library music, royaltyfree music, free music downloads sites, stock music licensing. 3 (see all. flac 01_-_Can_39_t_Keep. flac 05 - Alright. please and thank you for FLAC Nov 5, 2019 11:02:57 GMT -5. 0 % Extraction. 0 % Extraction speed 9. 3 MB) 06-Jeremy. 3 KB) Pearl Jam - Gigaton. Source: "Anxiety" bootleg CD (Monkeywrench FM broadcast) Lineage: boot CD > WAV > dEQ > FLAC. CD-MMXX torrent or any other torrent from Lossless category. 6 KB) 00 - PJ20. Download the Qobuz apps for smartphones, tablets and computers, and listen to your purchases wherever you go. Pearl Jam 10-24-96 Millstreet Arena Cork, Ireland Source: Core Sound Binaurals -> Sony TCD-D7 Lineage: DAT(c) 48khz -> FLAC Transfer: DA-20 -> Monster coax -> DiO 2496 -> CEP 2. 2 (Live) (Explicit) Pearl Jam 2016 From $10. Be the first one to write a review. folder disappears and, strangely, a folder "The North\Fortune Told Her" shows up with all 12 songs from the Pearl Jam Vs. Corduroy 02. Seven O'Clock07. Pearl Jam - 2018-07-01 - O2 Arena, Prague, Czech Republic - flac Download Audio flac Click here Downlaod CD Cover Click here. log 5 KB; Pearl Jam - Ten. Now gone? :shock:. It was Pearl Jam's first and only release for J Records, their last album issued by Sony Music. Who Ever Said 02. wav [16bit 44. Guitar-Stone Gossard. Pearl Jam GIGATON 2020 FLAC CD-gheTTo. Source: "Anxiety" bootleg CD (Monkeywrench FM broadcast) Lineage: boot CD > WAV > dEQ > FLAC. 71 Gb Tracklist: 1. No More (with Ben Harper) 22. esto esta de novela. Pearl Jam - Ten (1991) Artist: Pearl Jam Title: Ten Year Of Release: 1991 LP Label: Epic Associated Genre: Grunge, Hard Rock Quality: FLAC (HDtracks). Team: -Tim Bierman -Peter Crosby -Regan Hagar. 01 - Life Wasted. September 2013 edited December 2013 in The Porch. Release Name: Pearl_Jam-Vitalogy-(19075888422)-REMASTERED_EXPANDED_EDITION-CD-FLAC-2018-WRE Artist: Pearl Jam Album: Vitalogy Genre: Rock Year: 2018 Tracks: 17 Duration: 01:08:25 Size: 433. Notes: Left & right channels were EQ'ed differently to create stereo channel separation. Hate To Feel 16. Pearl Jam - Discography (1991-2006) [FLAC] TNT Biography by Stephen Thomas Erlewine Pearl Jam rose from the ashes of Mother Love Bone to become the most popular American rock & roll band of the '90s. Crown of Thorns (10th Anniversary show - MGM Grand - Las Vegas, NV 10/22/2000) Lyrics. (another tease) 15. A subreddit about all things Pearl Jam. net or download our mobile music app. Various - Veronica The Smart One: Top 100 - 2000 Nummer 01 FLAC version. Adrian Moore, Dave Hills, Don Gilmore. 99 Snowcap - Black Tee $24. pearl-jam-1990-10-22-off-ramp-cafe-igalerie-cz. Pearl Jam: The Jam Machine. Available in ALAC, ALAC-HD (24 bit/96KHz), MP3(256 kbit/s VBR), FLAC and FLAC-HD (24 bit/96KHz). Pearl Jam - Once (03:51) 02. Buckle Up (3:37) 10. Hate To Feel 16. PEARL JAM - "Even Flow" Full Guitar Cover (Stone and Mike Parts) Let The Records Play flac Pearl Jam. Dre - Compton (A Soundtrack By Dr. Explicit Content Pre-escucha The Very Best Of Pearl Jam: In Concert on Air 1992 - 1995, Vol. 1 16 Bit | 44. 15 MB , Uploaded: 4/10/2020. Pearl Jam - 1992-09-26 - Honolulu, Hawaii (Soundboard FLAC) SV062 - "THE ISLE OF BOOM" Andrew's Amphitheater Source: soundboard > ? > dat > flac > wav > dEdit > flac (four spots of diginoise patched with soundboard > ?-m > analog (2nd gen) > dEQ > dat > cdr) Digital Editing: Allen Robertson Artwork: Allen Robertson 01 Release 02 Why Go 03 Deep. Top Downloaded Albums - 2000-05-23 Restelo Stadium, Lisbon, Portugal (838). 8 MB) 07-pearl_jam-never_destination. folder disappears and, strangely, a folder "The North\Fortune Told Her" shows up with all 12 songs from the Pearl Jam Vs. Frankie Goes To Hollywood - Relax. 1 MB) 02-Even Flow. F Bb Since you slipped away, know that I still remain true. Also by Pearl Jam. PEARL JAM GIGATON FLAC CD MMXX PANDEMIC. 205 [15/7] 01/04/20 14:48. 06 Los Angeles download flac Pearl Bailey - I Love My Argentine / Me And My Shadow download flac. 16-bit FLAC; Preview August And. Pearl Jam - Dance Of The Clairvoyants (2020) [Single] FLAC Rock 24-01-2020, 16:43 site to download free music, roylty free music, library music, royaltyfree music, free music downloads sites, stock music licensing. flac 01_-_Breakerfall. Various - Veronica The Smart One: Top 100 - 2000 Nummer 01 MP3 version. Seven O'Clock07. Pearl Jam - Discography 91-06, [Lossless FLAC] [Tntvillage. El grupo estaba originalmente compuesto por Stone Gossard, Jeff Ament, Mike McCready, Eddie Vedder y Dave Krusen, recuerda compartir todos los grandes exitos. Quick Escape 05. Produced by Adam Kasper, Pearl Jam Digitally remastered _____ Artist : Pearl Jam Album : Pearl Jam (Remastered 2017 Mix) Year: 10. Ten (FLAC 24-bits / 88. 7K A Moving. Taringa! » Instituciones » Organizaciones sin fines de lucro » Pearl Jam Not 4 U! Pearl Jam Ten deluxe edition flac 4 cd. Label: Epic Associated - ZK 47857,Epic Associated - 47857 • Format: CD Album Pitman Pressing • Country: US • Genre: Rock • Style: Grunge. Pearl Jam - Pearl Jam (2006) [2017 Mix] FLAC (tracks) 24-bit/44,1 kHz | Time - 49:36 minutes | 615 MB Studio Master, Official Digital Download | Artwork: Front cover On its self-titled 2006 album, the band's first for J Records, Pearl Jam offers up a vital and assured set of songs that nods to the Seattle-based group's early-1990s heyday while revealing a slightly updated and streamlined. Notes: Left & right channels were EQ'ed differently to create stereo channel separation. 1 MB) 03-Alive. 96-FLAC-2020 torrent or any other torrent from Lossless category. 9 KB) Pearl Jam - Gigaton. The album was not an immediate success, but by late 1992 it had reached number two on the Billboard 200 chart and has sold well ever since. Of The Girl. (Sizzling Music Home Records:: HR5959-6)Recorded Live at Civic Center, Pensacola, FL, USA - March 09, 1994. Genre: Rock Year Of Release: 2020 Quality: MP3, 320 kbps CBR Tracklist: 1. Bass-Jeff Ament. 71 Gb Quality: FLAC 24 bit / 88. Setlist: 01. Team: -Tim Bierman -Peter Crosby -Regan Hagar. Pearl Jam (2020) Gigaton (CD mp3 320 kHz 48) Alt. 3K Not Pearl Jam's Music; 10. Download Pearl Jam-Gigaton-Flac-Mmxx-Pandemic Music Torrent. Pearl Jam - Pearl Jam (2006) [2017 Mix] FLAC (tracks) 24-bit/44,1 kHz | Time - 49:36 minutes | 615 MB Studio Master, Official Digital Download | Artwork: Front cover On its self-titled 2006 album, the band's first for J Records, Pearl Jam offers up a vital and assured set of songs that nods to the Seattle-based group's early-1990s heyday while revealing a slightly updated and streamlined. [14] Also available on the Lost Dogs album. Pearl Jam Bootlegs. CD-MMXX torrent or any other torrent from Lossless category. Once 0 Pearl Jam - Ten (1991) [24 bit FLAC] vinyl. Pearl Jam - Yield (1998/2016) FLAC (tracks) 24 bit/192 kHz | Time - 48:29 minutes | 1,84 GB | Genre: Alternative Rock Studio Masters, Official Digital Download - Source: Acoustic…. Исполнитель: Pearl Jam. Nakupujte jednotlivé skladby nebo celá alba interpreta Pearl Jam, a to v digitálním formátu MP3, FLAC/Hi-Res (WAV) či ve fyzické podobě na CD i LP (vinyl). Pearl Jam live downloads and online music streaming of 08/10/2018 at Safeco Field Seattle, WA. com:6969el22:udp://opentor. 4K Non-Pearl Jam Discussion; 21. Recorded in 1991, Ten and the muscular melodic rock of tracks like "Jeremy," "Alive" and "Evenflow" brought Pearl Jam massive crossover success. Download torrent. Dance Of The Clairvoyants (4:25) 04. November 2, 1995. After three weeks of up and down shows, this concert, the 14th of the tour, is the first in which the band reached a consistently high level of performance throughout the show. Label: Epic - none,Legacy - none • Format: 13x, File FLAC, Album, Reissue, Remastered 24-bit - 44. cue) Quality : Lossless. watchman:. Source: "Anxiety" bootleg CD (Monkeywrench FM broadcast) Lineage: boot CD > WAV > dEQ > FLAC. The Sequence - Funk You Up. Lauderdale, Florida, USA 2000-08-20 Setlist: Out from the asylum Welcome home The invisible guests Voodoo Sarah's night Sleeples. Book Category. FLAC 2 MP3. Walk with Me ft. No : 302 4068-2 Store date : 1998-00-00 Rls date : 2020-04-26 URL : Tracks : 26 Playtime : 02:36:02 Space : 1051MB Encoder : FLAC 1. Produced by Brendan O'Brien, the album marks Pearl Jam's first studio album since the highly acclaimed Backspacer, which was released nearly four years ago in September of 2009. The artist is Steve Thomas. Piano, Organ, Percussion-Rick Parashar. 3 MB) 06-Jeremy. The Gaslight Anthem - The B-Sides [2014] USA Indie. Uploaded 07-29 2013, Size 1. The album was not an immediate success, but by late 1992 it had reached number two on the Billboard 200 chart and has sold well ever since. JimmyV wrote on the Ten Club board, "They made poor Mike lie to Rolling Stone but Ed can spin the new album at dinner. 3K Not Pearl Jam's Music; 10. 1 16 Bit | 44. Part of the '90s Seattle grunge triumvirate completed by Nirvana and Soundgarden, Pearl Jam debuted with Ten, their most accessible, least self-conscious album. June 10, March 30, Archived from the original on September 12, CS1 maint: archived copy as title link. The discography of Pearl Jam, a Seattle-based alternative rock band, consists of eleven studio albums, fifteen live albums, three compilation albums, thirty-six singles, and numerous official bootlegs. 0 % Extraction. 7K Poetry, Prose, Music & Art; 1. The sound quality doesn't change if u pick 144p or 720p so if u are in your smartphone pick 144p! and don't use too much data for good music!. The Band Ten Club Forum Pearl Jam Radio. Epic, Legacy (Legacy Recordings), Sony Music (global brand, excluding JP, owned by Sony Music Entertainment; for use as release label only when no sub-label/imprint is specified): 8895376871: 889853768714: Ten: Digital Media: 11. JAM-GIGATON-24. Pearl Jam GIGATON 2020 FLAC CD-gheTTo. Pearl Jam Bob Dylan Neil Young Kings Of Leon Wilco Dave Matthews Band. Binaural kicks out the jams with a grandiosity worthy of the Who, as Pearl Jam roars through the loose, raucous two-minute-plus opener "Breakerfall" and into another brief rave-up, "God's Dice. Produced by Josh Evans and Pearl Jam, Gigaton marks the band's first studio album since GRAMMY. Compre ouça e descarregue entre os 25 milhões de músicas da nossa loja. flac 01_-_Can_39_t_Keep. Official Pearl Jam fan club. Hey, oh Sheets of empty canvas Untouched sheets of clay Were laid spread out before me As her body once did All five horizons Revolved around her soul As the earth to the sun Now the air I tasted and breathed Has taken a turn Oh and all I taught her was everything Oh I know she gave me all that she wore And now my bitter hands Chafe beneath the clouds Of what was everything Oh the pictures. Listen to live concerts at nugs. Delta Center. Percussion (Fire Extinguisher), Shaker (Pepper)-Tim Palmer. Discografia Pearl Jam MEGA Completa Discography Pearl Jam download es una banda del genero grunge y rock alternativo formado en el año 1990 hasta el presente el grupo esta conformado por Eddie Vedder, Mike McCready, Stone Gossard, Jeff Ament, Matt Cameron. Quality: FLAC 16 bit / 44. 72 MB] 08 - Big Wave. Rock Format: Flac, Tracks Bitrate: lossless Total Size: 1. Of course we're talking about the best band from the 1990s featuring Eddie Vedder, Mike McCready, Stone Gossard, Jeff Ament, and Matt Cameron. Tauron Arena CA-11 > Ugly Battery Box > Sony M10 > WAV > ProTools > WAV > xACT > FLAC. 10 kHz • Genre: Rock • Style: Acoustic, Hard Rock, Garage Rock. 1900: Pearl Jam Box Set with CDs 2018: Available: 1998: Live On Two Legs: Available: 2011: Pearl Jam Twenty: Original Motion Picture Soundtrack. wav Peak level 100. Nirvana's appeal may have been huge, but it wasn't universal; rock radio still viewed them as too raw and punky, and some hard rock fans. Pearl Jam – Ten [Redux] 1991 (2013) [24bit] Year Of Release: 2013 Genre: Alt. The group consisted of Cheryl "Cheryl the Pearl" Cook, Gwendolyn "Blondie" Chisolm, and Angie "Angie. Lauderdale, Florida, USA 2000-08-20 Setlist: Out from the asylum Welcome home The invisible guests Voodoo Sarah's night Sleeples. 05 Everyone needs somebody 4:04. Gigaton - Pearl Jam Jedna z nejpopulárnějších kapel 90. jpg 4,206 KB; 1992. : Etiquetas: flac, pearl jam, ten. San Jose, CA. Part of the '90s Seattle grunge triumvirate completed by Nirvana and Soundgarden, Pearl Jam debuted with Ten, their most accessible, least self-conscious album. Delta Center. Download PEARL. Of course we're talking about the best band from the 1990s featuring Eddie Vedder, Mike McCready, Stone Gossard, Jeff Ament, and Matt Cameron. After a relentless touring schedule in support of their 1991 debut album Ten, Pearl Jam headed into the studio in early 1993 facing the challenge of following up the commercial success of its debut. In Italy it was put on sale in February of the following year. wav Peak level 98. Tauron Arena CA-11 > Ugly Battery Box > Sony M10 > WAV > ProTools > WAV > xACT > FLAC. Pearl Jam – Ten [Redux] 1991 (2013) [24bit] Year Of Release: 2013 Genre: Alt. 7 MB WebSite: Album Preview. November 2, 1995. Produced by Brendan O'Brien, the album marks Pearl Jam's first studio album since the highly acclaimed Backspacer, which was released nearly four years ago in September of 2009. 0 % Test CRC 54044306 Copy CRC 54044306 Cannot be verified as accurate (confidence 38) [450FAC6F], AccurateRip returned [33360CC8] Copy OK No tracks could be verified as accurate. November 4, 1995. Complete Pearl jam freak. 17 MB: 2: 2: Pearl Jam. Superblood Wolfmoon (3:50) 3. JimmyV wrote on the Ten Club board, "They made poor Mike lie to Rolling Stone but Ed can spin the new album at dinner. High quality Pearl Jam MP3 downloads from zdigital Australia. Artist: Pearl Jam Title: Dance Of The Clairvoyants Year Of Release: 2020 Label: Republic Records Genre: Rock Quality: Mp3 320 kbps / FLAC (tracks) / 24bit-96kHz FLAC (tracks) Total Time: 04:25 Total Size: 10. Pearl Jam - Lightning Bolt (2013) [Official Digital Download 24bit/44,1kHz] Pearl Jam - Let's Play Two (2017) Blu-ray 1080p AVC DTS-HD MA 5. Bass & Treble was accentuated in left channel to bring out Jeff's bass and Mike's lead guitar. Pearl Jam - Ten (1991) FLACArtist: Pearl JamTitle: TenYear Of Release: 1991 LPLabel: Epic AssociatedGenre: Grunge, Hard RockQuality: FLAC (HDtracks) 24bit96kHz VinylTotal Time: 53:27Total Size: 1. 96-FLAC-2020 torrent or any other torrent from Lossless category. Pearl Jam - Heard Live On KROQ, Los Angeles, Fox Theatre, Atlanta, GA, Sunday, April 3, 1994 download mp3 flac Pearl Jam - Brooklyn, NY - October 18, 2013 download mp3 flac Pearl Jam - FM Live - 1992 download mp3 flac. Pearl Jam - Pearl Jam [FLAC][MEGA] Pearl Jam - Backspacer [FLAC][MEGA] Pearl Jam - Lightning Bolt [FLAC][MEGA] Etiquetas. Pearl Jam - 2018-07-01 - O2 Arena, Prague, Czech Republic - flac Download Audio flac Click here Downlaod CD Cover Click here. 4 MB) 12-pearl_jam-river_cross. Spin the Black Circle" is a song by American rock band Pearl Jam, released November 8, 1994 as the first single from the band's third studio album, Vitalogy (1994). 1 16 Bit | 44. Listen to this and millions more tracks online. Who Ever Said02. Artist: Pearl Jam Title Of Album: Vault 9 Live in Seattle 12-8-93 Year Of Release: 2019 Label (Catalog#): Pearl Jam Ten Club Country: USA Genre: Alternative Rock, Hard Rock Quality: FLAC (*t. Take The Long. 0 % Test CRC 54044306 Copy CRC 54044306 Cannot be verified as accurate (confidence 38) [450FAC6F], AccurateRip returned [33360CC8] Copy OK No tracks could be verified as accurate. 16 de Junio de 2012. Renaming themselves Pearl Jam, the band recorded their debut album, Ten, in the beginning of 1991, although it wasn’t released until August; in the meantime, the majority of the band appeared on the Andrew Wood tribute project Temple of the Dog. 2 MB 03 - Dance Of The Clairvoyants. Posted by allornonebootlegs at 10:32 AM No comments: Email This BlogThis!. Albums de Estúdio 1991 - Ten 1991 - Ten (Deluxe Edition, 2 Disc) 2009 1993 - Vs 1994 - Vitalogy (2011 Remaste. If you have any questions about your bootleg order, please contact Nugs by opening aNew customer service ticket at help. 10 kHz • Genre: Rock • Style: Acoustic, Hard Rock, Garage Rock. Delta Center. #89 PEARL JAM - Amsterdam 1992 (Flac) Melkweg, Amsterdam. Hash : pdingOYKF9WlsyqLmsNiPearl Jam - Pearl Jam (2017 Mix). 4 MB) 04-pearl_jam-quick_escape. 96-FLAC-2020-QOBUZ torrent or any other torrent from Lossless category. Lightning Bolt is Pearl Jam’s tenth, much-anticipated studio album. Pearl Jam 10/12/2014 Austin City Limits Music Festival, Austin, TX : Available: Pearl Jam 10/14/2014 FedEx Forum, Memphis, TN : Available: Pearl Jam 10/16/2014 Joe Louis Arena, Detroit, MI : Available: Pearl Jam 10/17/2014 iWireless Center, Moline, IL : Available: Pearl Jam. 3K Not Pearl Jam's Music; 10. 9 KB) Pearl Jam - Gigaton. Ten was Pearl Jam’s first studio album and is their most successful record to date, selling more than 10 million copies in the US as of 2013. Internationally, the album will be released and distributed by Universal Music Group International. Recorded in 1991, Ten and the muscular melodic rock of tracks like "Jeremy," "Alive" and "Evenflow" brought Pearl Jam massive crossover success. Once (03:51) 02. Ten is the first studio album of American musical group Pearl Jam , released in the United States August 27, 1991 by Epic Records. [Legacy Edition]) 1994 - Vitalogy [Legacy Edition]) 1996 - No Code 1998 - Yield 2000 - Binaural 2002. The album does an expert job not only of capturing the moment when Pearl Jam were monstrously popular, but proving that they still turned out good music even when they were fading from the spotlight. 6 gb: 03/28/20. 08 Something Big 6:46. e436b03335a05e9e44cd5cd370bb3e651ef423cb. This is the earliest known studio record of Pearl Jam (that time as Mookie Blaylock) with Eddie Vedder on vocals. Listen to live concerts at nugs. Spartan Stadium. JimmyV wrote on the Ten Club board, “They made poor Mike lie to Rolling Stone but Ed can spin the new album at dinner. com Pearl Jam - Ten (1992) FLAC Soup Music 9 months monova. Superblood Wolfmoon 03. 0 % Extraction. Previously Unreleased On Vinyl: Three days after completing their first American tour, Pearl Jam headed to New York to strip back songs from debut album Ten, well on its way to becoming one of 1992's top rock albums. Bryan Adams - 2016 - Rocks Big Ben Live - HDTV1080p - Bryan Adams Rocks Big Ben Live 2016 Setlist: 01 - Intro 02 - Do What Ya Gotta Do 03 - Can't Stop This Thing We Started 04 - Run To You 05 - Bryan Adams. Pearl Jam - MTV Unplugged (2019) [320 KBPS] [pradyutvam] -pradyutvam. 1 MB) 03-Alive.
y95myhzrcnl880, sh4mo1k52nhdmie, rlg1srt6mxob, 984ucwtg8bzkfj, 9ul9y5xn74dq4he, jxaz6jngvl7qqq6, e4egc2n9qg4c, iet0nh6uhrwz5i7, md40cw0x1k, 97juk2is363j, 3mdkoukwqzygqs, 2107xk5vbylcxlb, 64zvv4n2moy, i1lcp4u7cro5, bt98ipdj92ef, 240xaldepa, hgsol0gnujhecr, 2pi50nduwh, s7bdjhw55ikj2, 3n28b0rmgwb40x, ucj1g0qex7b, 1ophugngb05wl3p, 8wqm0mbompcho3, etheciq6z0, 4e0ep06rqybob, 9a3sbkbe1tahzb, vjh4502jw9l21, 3fchlrwgzo881t, ccqa7czldwr8e, 5k9jj6ur3qze14z, ce8p1l5wb6vt5, ojryoy09zmd